Invalid file

    Invalid file

    Ich habe einige ältere Videos gefunden, welche sich auf dem PC abspielen lassen, aber auf dem Player "Invalid file" liefern. Hier sind die MediaInfo Daten:

    General

    Format : AVI
    Format/Info : Audio Video Interleave
    File size : 180 MiB
    Duration : 21mn 3s
    Overall bit rate : 1 196 Kbps
    Writing library : VirtualDub build 13870/release

    Video
    ID : 0
    Format : MPEG-4 Visual
    Codec ID : MP42
    Codec ID/Info : Microsoft MPEG-4 v2 (pre-standard)
    Codec ID/Hint : Microsoft
    Duration : 21mn 3s
    Bit rate : 1 057 Kbps
    Width : 480 pixels
    Height : 360 pixels
    Display aspect ratio : 4:3
    Frame rate : 29.970 fps
    Compression mode : Lossy
    Bits/(Pixel*Frame) : 0.204
    Stream size : 159 MiB (88%)

    Audio
    ID : 1
    Format : MPEG Audio
    Format version : Version 1
    Format profile : Layer 3
    Mode : Joint stereo
    Mode extension : MS Stereo
    Codec ID : 55
    Codec ID/Hint : MP3
    Duration : 21mn 3s
    Bit rate mode : Constant
    Bit rate : 128 Kbps
    Channel(s) : 2 channels
    Sampling rate : 44.1 KHz
    Compression mode : Lossy
    Stream size : 19.3 MiB (11%)
    Alignment : Split accross interleaves
    Interleave, duration : 33 ms (1.00 video frame)
    Interleave, preload duration : 500 ms